RaspbmcCrystalbuntu

Post Reply 
 
Thread Rating:
  • 0 Votes - 0 Average
  • 1
  • 2
  • 3
  • 4
  • 5
SD playback issue as of today
12-22-2012, 09:22 AM
Post: #21
RE: SD playback issue as of today
Used mediainfo on the same file:

Code:
Format                                   : AVI
Format/Info                              : Audio Video Interleave
File size                                : 174 MiB
Duration                                 : 22mn 45s
Overall bit rate mode                    : Variable
Overall bit rate                         : 1 068 Kbps
Writing application                      : MEncoder dev-SVN-r26940
Writing library                          : MPlayer

Video
ID                                       : 0
Format                                   : MPEG-4 Visual
Format profile                           : Advanced Simple@L5
Format settings, BVOP                    : 2
Format settings, QPel                    : No
Format settings, GMC                     : No warppoints
Format settings, Matrix                  : Default (H.263)
Muxing mode                              : Packed bitstream
Codec ID                                 : XVID
Codec ID/Hint                            : XviD
Duration                                 : 22mn 45s
Bit rate                                 : 933 Kbps
Width                                    : 624 pixels
Height                                   : 352 pixels
Display aspect ratio                     : 16:9
Frame rate                               : 23.976 fps
Color space                              : YUV
Chroma subsampling                       : 4:2:0
Bit depth                                : 8 bits
Scan type                                : Progressive
Compression mode                         : Lossy
Bits/(Pixel*Frame)                       : 0.177
Stream size                              : 152 MiB (87%)
Writing library                          : XviD 1.2.1 (UTC 2008-12-04)

Audio
ID                                       : 1
Format                                   : MPEG Audio
Format version                           : Version 1
Format profile                           : Layer 3
Mode                                     : Joint stereo
Mode extension                           : MS Stereo
Codec ID                                 : 55
Codec ID/Hint                            : MP3
Duration                                 : 22mn 45s
Bit rate mode                            : Variable
Bit rate                                 : 123 Kbps
Channel(s)                               : 2 channels
Sampling rate                            : 48.0 KHz
Compression mode                         : Lossy
Stream size                              : 20.0 MiB (11%)
Alignment                                : Aligned on interleaves
Interleave, duration                     : 24 ms (0.58 video frame)
Interleave, preload duration             : 553 ms

The magic word packed bitstream occurs. Is it raspbmc or xbmc that needs a patch?
Find all posts by this user
Quote this message in a reply
12-22-2012, 02:40 PM
Post: #22
RE: SD playback issue as of today
it's got to be xbmc since the different nightlies fix it. they all use the same raspbmc backend.
Find all posts by this user
Quote this message in a reply
12-22-2012, 03:08 PM
Post: #23
Sv: SD playback issue as of today
Yep, tried reverting to 121210, and the above mentioned file works.
Find all posts by this user
Quote this message in a reply
12-22-2012, 03:17 PM (This post was last modified: 12-22-2012 03:48 PM by Kekule.)
Post: #24
RE: Sv: SD playback issue as of today
(12-22-2012 03:08 PM)ogre Wrote:  Yep, tried reverting to 121210, and the above mentioned file works.


Just was about to revive that trac but saw you got to it first. hopefully thats all it takes Smile

Kekule

yep, looks like this patch from Dec 14th. broke it....

https://github.com/xbmc/xbmc/commit/271d...rVideo.cpp

commenting on that old trac still leaves it closed so I started a new ticket:

http://trac.xbmc.org/ticket/13800
Find all posts by this user
Quote this message in a reply
12-23-2012, 02:08 PM (This post was last modified: 12-23-2012 02:08 PM by Jester.)
Post: #25
RE: SD playback issue as of today
Update coming soon:

https://github.com/huceke/xbmc/commit/e0...8d1cbabff5

https://github.com/xbmc/xbmc/pull/1978
Find all posts by this user
Quote this message in a reply
12-23-2012, 04:56 PM
Post: #26
RE: SD playback issue as of today
and it's in as of right now

https://github.com/xbmc/xbmc/commit/e28e...7a48c9f8d2
Find all posts by this user
Quote this message in a reply
12-23-2012, 05:04 PM
Post: #27
RE: SD playback issue as of today
Good stuff!

Should be in the next nightly then. Looking forward to testing it.
Find all posts by this user
Quote this message in a reply
12-24-2012, 06:28 AM
Post: #28
RE: SD playback issue as of today
Flashed to 20121224 nightly today. SD video works fine! =D
Find all posts by this user
Quote this message in a reply
12-24-2012, 10:27 AM
Post: #29
RE: SD playback issue as of today
Work fine so !
Visit this user's website Find all posts by this user
Quote this message in a reply
12-24-2012, 11:33 AM
Post: #30
RE: SD playback issue as of today
Very nice! And the play next item is still working. I only have one issue left now and not sure that with all the changes lately that it's not fixed as well.

Cheers,
G
Find all posts by this user
Quote this message in a reply
Post Reply 


Forum Jump:


User(s) browsing this thread: 1 Guest(s)

Sponsored Advertisement